Enable / Włącz Javascript
 Widok 
 Kategorie 
 Nitro Torrent w sieci 
 Top 10 użytkowników 
 Aleksander - okropny, straszny, niezbyt dobry, bardzo zły dzień *2014* [CAM.XviD-COX] [ENG]

Aleksander - okropny, straszny, niezbyt dobry, bardzo zły dzień *2014* [CAM.XviD-COX] [ENG]
Kategoria: » » »
Dodane: 03/10/2017
Rozmiar: 0.99 GB
Uploader: sunstarnova.com❱ Wędrowiec
seed(ów): 0
leecher(ów): 0
Pobrane: 2
Komentarzy: 0
Pobierz Torrent Pobierz Torrent
Pobierz [Magnet] Pobierz [Magnet]

Obserwuj
Raportuj
F_INFO

gatunek: FamilijnyKomedia
produkcja: USA
premiera: 9 października 2014 (świat)
reżyseria: Miguel Arteta
scenariusz: Lisa CholodenkoRob Lieber

F_OBSADA

Steve Carell
Jennifer Garner
Ed Oxenbould

F_OPIS

Mały chłopiec budzi się z gumą do żucia we włosach, co zwiastuje najgorszy dzień w jego życiu.

F_SCREENY

[video=http://www.youtube.com/watch?feature=player_detailpage&v=Z_dideF5qvk]

F_DANE

Format : AVI
Format/Info : Audio Video Interleave
File size : 1 014 MiB
Duration : 1h 12mn
Overall bit rate : 1 946 Kbps
Writing application : VirtualDubMod 1.5.10.2 (build 2540/release)
Writing library : VirtualDubMod build 2540/release

Video
ID : 0
Format : MPEG-4 Visual
Format profile : Advanced Simple@L5
Format settings, BVOP : 2
Format settings, QPel : No
Format settings, GMC : No warppoints
Format settings, Matrix : Default (H.263)
Muxing mode : Packed bitstream
Codec ID : XVID
Codec ID/Hint : XviD
Duration : 1h 12mn
Bit rate : 1 798 Kbps
Width : 720 pixels
Height : 304 pixels
Display aspect ratio : 2.35:1
Frame rate : 59.940 fps
Color space : YUV
Chroma subsampling : 4:2:0
Bit depth : 8 bits
Scan type : Progressive
Compression mode : Lossy
Bits/(Pixel*Frame) : 0.137
Stream size : 937 MiB (92%)
Writing library : XviD 1.2.1 (UTC 2008-12-04)

Audio
ID : 1
Format : MPEG Audio
Format version : Version 1
Format profile : Layer 3
Codec ID : 55
Codec ID/Hint : MP3
Duration : 1h 12mn
Bit rate mode : Constant
Bit rate : 128 Kbps
Channel(s) : 2 channels
Sampling rate : 48.0 KHz
Compression mode : Lossy
Stream size : 66.7 MiB (7%)
Alignment : Aligned on interleaves
Interleave, duration : 24 ms (1.44 video frame)
Interleave, preload duration : 504 ms
Writing library : LAME3.97

Dostępne napisy
Brak napisów
Szczegóły torrenta
Tracker udp://tracker.istole.it:80/announce
Multitracker [ Pokaż ]
Kategoria: » » » [Zgłoś błąd]
Dodane 03-10-2017
Podziękowali:
0 użytkowników 
Podziękuj!
Pokaż / Ukryj pliki:
Nazwa pliku Rozmiar
Alexander.And.The.Terrible.Horrible.No.Good.Very.Bad.Day.2014.CAM.XviD-COX.avi 0.99 GB
Torrent Downloaded From ExtraTorrent.cc.txt 0.33 KB
info.nfo 0.28 KB
3 plików
Brak komentarzy...