Enable / Włącz Javascript
 Widok 
 Kategorie 
 Nitro Torrent w sieci 
 Top 10 użytkowników 
 Journey 2 The Mysterious Island - Podróż na Tajemniczą Wyspę *2012*[Cam][XviD Feel-Free][ENG]

Journey 2 The Mysterious Island - Podróż na Tajemniczą Wyspę *2012*[Cam][XviD Feel-Free][ENG]
Kategoria: » » »
Dodane: 03/10/2017
Rozmiar: 873.74 MB
Uploader: sunstarnova.com❱ Wędrowiec
seed(ów): 0
leecher(ów): 0
Pobrane: 5
Komentarzy: 0
Pobierz Torrent Pobierz Torrent
Pobierz [Magnet] Pobierz [Magnet]

Obserwuj
Raportuj
INFO:

Journey 2 The Mysterious Island - Podróż na Tajemniczą Wyspę *2012*

czas trwania: 1 godz. 34 min.
gatunek: Familijny, Fantasy, Przygodowy
premiera: 17 lutego 2012 (Polska) 19 stycznia 2012 (Świat)
produkcja: USA
reżyseria: Brad Peyton
scenariusz: Brian Gunn, Mark Gunn

OPIS:

Sean Anderson (Josh Hutcherson) odbiera zakodowany sygnał o pomoc z wyspy, której nie ma na mapie. Znajduje się tam jego zaginiony dziadek (Michael Caine), którego Sean postanawia odnaleźć. Pomaga mu ojczym (Dwayne Johnson) oraz  pilot helikoptera Gabato (Luis Guzman) i jego córka Kailani (Vanessa Hudgens). Razem wyruszają w niebezpieczną podróż, aby odnaleźć tajemniczą wyspę i uratować jej mieszkańców oraz swego dziadka.

OBSADA:

Josh Hutcherson
Vanessa Hudgens
Dwayne Johnson
Michael Caine
Kristin Davis
Luis Guzmán

DANE TECH:

Format : AVI
Format/Info : Audio Video Interleave
File size : 872 MiB
Duration : 1h 29mn
Overall bit rate : 1 367 Kbps

Video
ID : 0
Format : MPEG-4 Visual
Format profile : Advanced Simple@L5
Format settings, BVOP : 1
Format settings, QPel : No
Format settings, GMC : No warppoints
Format settings, Matrix : Default (H.263)
Codec ID : XVID
Codec ID/Hint : XviD
Duration : 1h 29mn
Bit rate : 1 164 Kbps
Width : 640 pixels
Height : 280 pixels
Display aspect ratio : 2.25:1
Frame rate : 29.970 fps
Color space : YUV
Chroma subsampling : 4:2:0
Bit depth : 8 bits
Scan type : Progressive
Compression mode : Lossy
Bits/(Pixel*Frame) : 0.217
Stream size : 742 MiB (85%)
Writing library : XviD 1.2.1 (UTC 2008-12-04)

Audio
ID : 1
Format : AC-3
Format/Info : Audio Coding 3
Mode extension : CM (complete main)
Codec ID : 2000
Duration : 1h 29mn
Bit rate mode : Constant
Bit rate : 192 Kbps
Channel(s) : 2 channels
Channel positions : Front: L R
Sampling rate : 48.0 KHz
Bit depth : 16 bits
Compression mode : Lossy
Stream size : 123 MiB (14%)
Alignment : Aligned on interleaves
Interleave, duration : 33 ms (1.00 video frame)
Interleave, preload duration : 512 ms


Dostępne napisy
Brak napisów
Szczegóły torrenta
Tracker http://pow7.com/announce
Multitracker [ Pokaż ]
Kategoria: » » » [Zgłoś błąd]
Dodane 03-10-2017
Podziękowali:
0 użytkowników 
Podziękuj!
Pokaż / Ukryj pliki:
Nazwa pliku Rozmiar
Journey 2 The Mysterious Island 2012 Cam XviD Feel-Free.avi 872.34 MB
Journey 2 The Mysterious Island 2012 Cam XviD Feel-Free.nfo 3.24 KB
journeyv.jpg 522.57 KB
Torrent downloaded from Extratorrent.com.txt 0.17 KB
vlcsnap-2012-02-08-09h17m31s167.png 378.29 KB
vlcsnap-2012-02-08-09h19m42s172.png 289.61 KB
vlcsnap-2012-02-08-09h21m41s105.png 243.12 KB
7 plików
Brak komentarzy...