Enable / Włącz Javascript
 Widok 
 Kategorie 
 Nitro Torrent w sieci 
 Top 10 użytkowników 
 Księga dżungli-The Jungle Book 3D (2016)[BRRip 1080p x264 by alE13 AC3DTS] [Dubbing PL] [ENG]

Księga dżungli-The Jungle Book 3D (2016)[BRRip 1080p x264 by alE13 AC3DTS] [Dubbing PL] [ENG]
Kategoria: » » »
Dodane: 03/10/2017
Rozmiar: 13.27 GB
Uploader: sunstarnova.com❱ Wędrowiec
seed(ów): 0
leecher(ów): 0
Pobrane: 27
Komentarzy: 0
Pobierz Torrent Pobierz Torrent
Pobierz [Magnet] Pobierz [Magnet]

Obserwuj
Raportuj


http://www.filmweb.pl/film/Ksi%C4%99ga+d%C5%BCungli-2016-697470
http://www.imdb.com/title/tt3040964/

Film w wersji 3D HALF-OVER/UNDER

reżyseria: Jon Favreau
scenariusz: Justin Marks
gatunek: Przygodowy
produkcja: USA
premiera: 04-04-2016
muzyka:         John Debney
zdjęcia:        Bill Pope
czas:           1h 45mn

opis:

After a threat from the tiger Shere Khan forces him to flee the jungle, a man-cub named Mowgli
embarks on a journey of self discovery with the help of panther, Bagheera, and free spirited bear, Baloo.

Wilcza rodzina przygarnia chłopca, któremu nadają imię Mowgli. Gdy ten podrasta, zaprzyjaźnia
się z czarną panterą Bagheerą i niedźwiedziem Baloo.







obsada:

Neel Sethi, Bill Murray, Ben Kingsley (voice)

dane techniczne:

The Jungle Book 3D (2016)-alE13.mkv
Format                      : Matroska
Format version              : Version 4 / Version 2
File size                   : 13.2 GiB
Duration                    : 1h 45mn
Overall bit rate            : 17.8 Mbps
Movie name                  : The Jungle Book 3D (2016)-alE13
Encoded date                : UTC 2016-08-19 04:40:04
Writing application         : mkvmerge v8.1.0 ('Psychedelic Postcard') 64bit
Writing library             : libebml v1.3.1 + libmatroska v1.4.2
Cover                       : Yes
Attachments                 : cover.jpg / cover.jpg

Video
ID                          : 1
Format                      : AVC
Format/Info                 : Advanced Video Codec
Format profile              : High@L4.1
Format settings, CABAC      : Yes
Format settings, ReFrames   : 2 frames
Codec ID                    : V_MPEG4/ISO/AVC
Duration                    : 1h 45mn
Bit rate                    : 16.0 Mbps
Width                       : 1 920 pixels
Height                      : 1 080 pixels
Display aspect ratio        : 16:9
Frame rate mode             : Constant
Frame rate                  : 23.976 (24000/1001) fps
Color space                 : YUV
Chroma subsampling          : 4:2:0
Bit depth                   : 8 bits
Scan type                   : Progressive
Bits/(Pixel*Frame)          : 0.322
Stream size                 : 11.8 GiB (89%)
Title                       : The Jungle Book 3D (2016)-alE13
Writing library             : x264 core 142
Default                     : Yes
Forced                      : No
Color range                 : Limited
Color primaries             : BT.709
Transfer characteristics    : BT.709
Matrix coefficients         : BT.709

Audio #1
ID                          : 2
Format                      : DTS
Format/Info                 : Digital Theater Systems
Mode                        : 16
Format settings, Endianness : Big
Codec ID                    : A_DTS
Duration                    : 1h 45mn
Bit rate mode               : Constant
Bit rate                    : 1 509 Kbps
Channel(s)                  : 6 channels
Channel positions           : Front: L C R, Side: L R, LFE
Sampling rate               : 48.0 KHz
Frame rate                  : 93.750 fps (512 spf)
Bit depth                   : 24 bits
Compression mode            : Lossy
Stream size                 : 1.12 GiB (8%)
Title                       : The Jungle Book 3D (2016)-alE13_DTS
Language                    : English
Default                     : No
Forced                      : No

Audio #2
ID                          : 3
Format                      : AC-3
Format/Info                 : Audio Coding 3
Mode extension              : CM (complete main)
Format settings, Endianness : Big
Codec ID                    : A_AC3
Duration                    : 1h 45mn
Bit rate mode               : Constant
Bit rate                    : 384 Kbps
Channel(s)                  : 6 channels
Channel positions           : Front: L C R, Side: L R, LFE
Sampling rate               : 48.0 KHz
Frame rate                  : 31.250 fps (1536 spf)
Compression mode            : Lossy
Stream size                 : 291 MiB (2%)
Title                       : The Jungle Book 3D (2016)-alE13_AC3
Language                    : Polish
Default                     : Yes
Forced                      : No

Menu
00:00:00.000                : en:(01)00:00:00:000
00:00:48.214                : en:(02)00:00:48:214
00:05:15.315                : en:(03)00:05:15:315
00:09:02.458                : en:(04)00:09:02:458
00:12:42.178                : en:(05)00:12:42:178
00:16:34.451                : en:(06)00:16:34:451
00:21:20.028                : en:(07)00:21:20:028
00:27:15.133                : en:(08)00:27:15:133
00:35:04.143                : en:(09)00:35:04:143
00:43:21.724                : en:(10)00:43:21:724
00:48:05.132                : en:(11)00:48:05:132
00:53:29.247                : en:(12)00:53:29:247
00:58:03.271                : en:(13)00:58:03:271
01:05:46.442                : en:(14)01:05:46:442
01:10:35.522                : en:(15)01:10:35:522
01:17:01.325                : en:(16)01:17:01:325
01:20:48.927                : en:(17)01:20:48:927
01:24:46.539                : en:(18)01:24:46:539
01:30:32.969                : en:(19)01:30:32:969
01:35:53.205                : en:(20)01:35:53:205
01:45:54.389                : en:(21)01:45:54:389



Dostępne napisy
Brak napisów
Szczegóły torrenta
Tracker http://tracker.aletorrenty.pl:2710/announce
Multitracker [ Pokaż ]
Kategoria: » » » [Zgłoś błąd]
Dodane 03-10-2017
Podziękowali:
0 użytkowników 
Podziękuj!
Pokaż / Ukryj pliki:
Nazwa pliku Rozmiar
info/cover.jpg 501.17 KB
info/1.jpg 282.25 KB
info/txt.jpg 153.13 KB
info/Nostalgie.jpg 138.36 KB
info/Torrent downloaded from alE13 torrents at BTScene.org.txt 0.12 KB
info/Torrent downloaded from demonoid.pw.txt 0.04 KB
info/Torrent downloaded from - www.aletorrenty.pl 0.04 KB
The Jungle Book 3D (2016)-alE13.mkv 13.20 GB
sample.mkv 71.65 MB
poster.jpg 171.09 KB
10 plików
Brak komentarzy...