Enable / Włącz Javascript
 Widok 
 Kategorie 
 Nitro Torrent w sieci 
 Top 10 użytkowników 
 Pasażerowie - Passengers *2016* [4K.2160p.UHD.BluRay.HDR.AC3.DTS-HD MA.5.1.x265] [Lektor i Napisy PL] [ENG]

Pasażerowie - Passengers *2016* [4K.2160p.UHD.BluRay.HDR.AC3.DTS-HD MA.5.1.x265] [Lektor i Napisy PL] [ENG]
Kategoria: » » »
Ocena użytkowników
Video 10/10
Audio 10/10
Dodane: 14/11/2017
Rozmiar: 22.84 GB
Uploader: feldfebel1 (14)
seed(ów): 13
leecher(ów): 8
Pobrane: 682
Komentarzy: 1
Pobierz Torrent Pobierz Torrent
Pobierz [Magnet] Pobierz [Magnet]

Obserwuj
Raportuj
 Info

gatunek: Przygodowy,Sci-Fi
produkcja: USA
premiera: 25 grudnia 2016 (Polska) 21 grudnia 2016 (świat)
reżyseria: Morten Tyldum
scenariusz: Jon Spaihts


Opis

Jennifer Lawrence ... Aurora Lane
Chris Pratt ... Jim Preston
Michael Sheen ... Arthur
Laurence Fishburne ... Gus Mancuso
Andy Garcia ... Kapitan Norris
Vince Foster ... Zastępca dowódcy
Kara Flowers ... Oficer łączności
Conor Brophy ... Członek załogi


Obsada

Podczas międzyplanetarnej podróży kosmicznej do nowego domu, na nową planetę, dwoje pasażerów ? wskutek niezrozumiałych, tajemniczych okoliczności ? budzi się ze snu dziewięćdziesiąt lat za wcześnie. Jim (Chris Pratt) i Aurora (Jennifer Lawrence) zakochują się w sobie, wiedzą, że spędzą na pokładzie resztę życia. Szybko odkrywają, że statek kosmiczny znajduje się w śmiertelnym niebezpieczeństwie, a życie pasażerów zależy tylko od nich... Powoli dowiadują się także, dlaczego ich wybudzenie nie było przypadkowe.


Dane Techniczne

General
Format : Matroska
Format version : Version 2
File size : 22.8 GiB
Duration : 1 h 56 min
Overall bit rate : 28.1 Mb/s
Movie name : Passengers.2016.PL.UltraHD.2160p.HDR.HEVC.10Bit.x265
Encoded date : UTC 2017-04-05 11:00:59
Writing application : mkvmerge v5.7.0 ('The Whirlwind') built on Jul 8 2012 20:08:51
Writing library : libebml v1.2.3 + libmatroska v1.3.0

Video
ID : 1
Format : HEVC
Format/Info : High Efficiency Video Coding
Format profile : Main 10@L5@High
Codec ID : V_MPEGH/ISO/HEVC
Duration : 1 h 56 min
Width : 3 840 pixels
Height : 1 606 pixels
Display aspect ratio : 2.40:1
Frame rate mode : Constant
Frame rate : 23.976 (24000/1001) FPS
Color space : YUV
Chroma subsampling : 4:2:0 (Type 2)
Bit depth : 10 bits
Writing library : x265 2.3+23-97435a0870be:[Windows][GCC 6.3.0][64 bit] 10bit
Default : Yes
Forced : No

Audio #1
ID : 2
Format : AC-3
Format/Info : Audio Coding 3
Format settings, Endianness : Big
Codec ID : A_AC3
Duration : 1 h 56 min
Bit rate mode : Constant
Bit rate : 640 kb/s
Channel(s) : 6 channels
Channel positions : Front: L C R, Side: L R, LFE
Sampling rate : 48.0 kHz
Frame rate : 31.250 FPS (1536 spf)
Bit depth : 16 bits
Compression mode : Lossy
Stream size : 532 MiB (2%)
Title : AC3 5.1 Lektor PL
Language : Polish
Service kind : Complete Main
Default : Yes
Forced : Yes

Audio #2
ID : 3
Format : AC-3
Format/Info : Audio Coding 3
Format settings, Endianness : Big
Codec ID : A_AC3
Duration : 1 h 56 min
Bit rate mode : Constant
Bit rate : 640 kb/s
Channel(s) : 6 channels
Channel positions : Front: L C R, Side: L R, LFE
Sampling rate : 48.0 kHz
Frame rate : 31.250 FPS (1536 spf)
Bit depth : 16 bits
Compression mode : Lossy
Stream size : 532 MiB (2%)
Title : AC3 5.1 ENG
Language : English
Service kind : Complete Main
Default : No
Forced : No

Audio #3
ID : 4
Format : DTS
Format/Info : Digital Theater Systems
Format profile : MA / Core
Mode : 16
Format settings, Endianness : Big
Codec ID : A_DTS
Duration : 1 h 56 min
Bit rate mode : Variable / Constant
Bit rate : 2119 / 1 509 kb/s
Channel(s) : 6 channels
Channel positions : Front: L C R, Side: L R, LFE
Sampling rate : 48.0 kHz
Frame rate : 93.750 FPS (512 spf)
Bit depth : 16 bits
Compression mode : Lossless / Lossy
Title : DTS-HD MA 5.1
Language : English
Default : No
Forced : No

Text #1
ID : 5
Format : UTF-8
Codec ID : S_TEXT/UTF8
Codec ID/Info : UTF-8 Plain Text
Language : Polish
Default : No
Forced : No

Text #2
ID : 6
Format : UTF-8
Codec ID : S_TEXT/UTF8
Codec ID/Info : UTF-8 Plain Text
Language : English
Default : No
Forced : No
Dostępne napisy
Brak napisów
Szczegóły torrenta
Tracker http://agusiq-torrents.pl:6969/announce
Multitracker [ Pokaż ]
Kategoria: » » » [Zgłoś błąd]
Dodane 14-11-2017
Podziękowali:
0 użytkowników 
Podziękuj!
Pokaż / Ukryj pliki:
Nazwa pliku Rozmiar
Passengers.2016.PL.2160p.UHD.4K.BluRay.HDR.x265.Sonda.mkv 22.84 GB
passengers_2016_4k_ultra-hd_blu-ray.jpg 112.14 KB
Torrent downloaded from sonda torrents at agusiq-torrents.pl.txt 3.88 KB
3 plików

<< Poprz.      Następna >>
1 - 1

Komentarz napisany przez użytkownika tomysparow559 (10) został skasowany.

1 - 1
<< Poprz.      Następna >>