Enable / Włącz Javascript
 Widok 
 Kategorie 
 Nitro Torrent w sieci 
 Top 10 użytkowników 
 Pułapka czasu - Time Trap [iTunes] (2017) [BRRip 2160p x264 AC3DTS] [Lektor PL i Napisy Eng] [Eng]

Pułapka czasu - Time Trap [iTunes] (2017) [BRRip 2160p x264 AC3DTS] [Lektor PL i Napisy Eng] [Eng]
Kategoria: » » »
Dodane: 25/11/2018
Rozmiar: 20.78 GB
Uploader: Anonim
seed(ów): 24
leecher(ów): 45
Pobrane: 419
Komentarzy: 0
Pobierz Torrent Pobierz Torrent
Pobierz [Magnet] Pobierz [Magnet]

Obserwuj
Raportuj
Info

reżyseria: Mark DennisBen Foster
scenariusz: Mark Dennis
gatunek: Przygodowy,Sci-Fi
produkcja: USA
premiera: 19-05-2017
premiera: 13-11-2018 (iTunes)
muzyka: Xiaotian Shi
zdjęcia: Mike Simpson
czas: 01:27:40


Opis

Grupa studentów archeologii postanawia zapuścić się w jaskinie w Teksasie ,by odnaleźć profesora Hoppera (Andrew Wilson).
Mężczyzna zaginął w niejasnych okolicznościach podczas swojej wyprawy. W trakcie poszukiwań dostają się w szczelinę
czasoprzestrzenną, co prowadzi do odkrycia jednej z najbardziej intrygujących tajemnic przeszłości.


Obsada

Andrew Wilson, Cassidy Gifford, Brianne Howey


Dane Techniczne

audio:

Time Trap (2017)-Kis & alE13.mka

Hash: 2665928AB91E17FE
Format: Matroska
Czas: 01:27:40.246
Rozmiar: 947 MiB (993418364)

Audio (0):
Kodek:     (DTS) DTS
Format:    DTS
Kanały:    6 channels
BitRate:   1 509 kb/s
Język:   English

Napisy (0):
Kodek:     (S_TEXT/UTF8) UTF-8
Format:    UTF-8
Język:   English (Full)

video:

Time Trap (2017)-Kis & alE13.mkv
Format           : Matroska
Format version       : Version 4 / Version 2
File size          : 19.8 GiB
Duration          : 1 h 27 min
Overall bit rate      : 32.3 Mb/s
Movie name         : Time Trap (2017)-Kis & alE13
Encoded date        : UTC 2018-11-24 11:12:15
Writing application     : mkvmerge v8.1.0 ('Psychedelic Postcard') 64bit
Writing library       : libebml v1.3.1 + libmatroska v1.4.2
Cover            : Yes
Attachments         : Cover.jpg / Cover.jpg / Cover.jpg

Video
ID             : 1
Format           : AVC
Format/Info         : Advanced Video Codec
Format profile       : Main@L5.1
Format settings       : CABAC / 2 Ref Frames
Format settings, CABAC   : Yes
Format settings, ReFrames  : 2 frames
Format settings, GOP    : M=1, N=23
Codec ID          : V_MPEG4/ISO/AVC
Duration          : 1 h 27 min
Bit rate          : 31.4 Mb/s
Width            : 3 840 pixels
Height           : 1 624 pixels
Display aspect ratio    : 2.35:1
Frame rate mode       : Constant
Frame rate         : 23.976 (24000/1001) FPS
Color space         : YUV
Chroma subsampling     : 4:2:0
Bit depth          : 8 bits
Scan type          : Progressive
Bits/(Pixel*Frame)     : 0.210
Stream size         : 19.2 GiB (97%)
Title            : Time Trap (2017)-Kis & alE13
Writing library       : x264 core 142
Default           : Yes
Forced           : No
Color range         : Limited
Color primaries       : BT.709
Transfer characteristics  : BT.709
Matrix coefficients     : BT.709

Audio #1
ID             : 2
Format           : AC-3
Format/Info         : Audio Coding 3
Codec ID          : A_AC3
Duration          : 1 h 27 min
Bit rate mode        : Constant
Bit rate          : 640 kb/s
Channel(s)         : 6 channels
Channel positions      : Front: L C R, Side: L R, LFE
Sampling rate        : 48.0 kHz
Frame rate         : 31.250 FPS (1536 SPF)
Bit depth          : 16 bits
Compression mode      : Lossy
Stream size         : 401 MiB (2%)
Title            : Time Trap (2017)-Kis & alE13_AC3
Language          : English
Service kind        : Complete Main
Default           : No
Forced           : No

Audio #2
ID             : 3
Format           : AC-3
Format/Info         : Audio Coding 3
Codec ID          : A_AC3
Duration          : 1 h 27 min
Bit rate mode        : Constant
Bit rate          : 256 kb/s
Channel(s)         : 2 channels
Channel positions      : Front: L R
Sampling rate        : 48.0 kHz
Frame rate         : 31.250 FPS (1536 SPF)
Bit depth          : 16 bits
Compression mode      : Lossy
Delay relative to video   : 800 ms
Stream size         : 160 MiB (1%)
Title            : Time Trap (2017)-Kis & alE13_AC3
Language          : Polish
Service kind        : Complete Main
Default           : Yes
Forced           : No

Text
ID             : 4
Format           : UTF-8
Codec ID          : S_TEXT/UTF8
Codec ID/Info        : UTF-8 Plain Text
Duration          : 1 h 20 min
Bit rate          : 61 b/s
Count of elements      : 1306
Stream size         : 36.4 KiB (0%)
Title            : Time Trap (2017)-Kis & alE13
Language          : English
Default           : No
Forced           : No
Dostępne napisy
Brak napisów
Szczegóły torrenta
Tracker udp://tracker.coppersurfer.tk:6969/announce
Multitracker [ Pokaż ]
Kategoria: » » » [Zgłoś błąd]
Dodane 25-11-2018
Podziękowali:
1 użytkownik 
[ Pokaż ]
Podziękuj!
Pokaż / Ukryj pliki:
Nazwa pliku Rozmiar
info/info/Nostalgie11.jpg 185.84 KB
info/info/Torrent Downloaded From devil-torrents.txt 0.06 KB
info/info/Torrent downloaded from filetracker.txt 0.05 KB
info/info/Torrent downloaded from demonoid.pw.txt 0.04 KB
info/info/Torrent Downloaded From immortaltorrent.txt 0.04 KB
info/info/Torrent Downloaded From prostylex.txt 0.04 KB
info/info/Torrent Downloaded From ex-torrents-org.txt 0.04 KB
info/info/Torrent Downloaded From super-torrent.txt 0.04 KB
info/Nostalgie.jpg 185.84 KB
info/Torrent Downloaded From devil-torrents.txt 0.06 KB
info/Torrent downloaded from filetracker.txt 0.05 KB
info/Torrent Downloaded From immortaltorrent.txt 0.04 KB
info/Torrent Downloaded From prostylex.txt 0.04 KB
info/Torrent Downloaded From ex-torrents-org.txt 0.04 KB
info/Torrent Downloaded From super-torrent.txt 0.04 KB
subtitles/Time Trap (2017)-Kis & alE13_eng.rar 980.32 KB
Time Trap (2017)-Kis & alE13.mkv 19.78 GB
Time Trap (2017)-Kis & alE13.mka 947.40 MB
Sample.mkv 70.20 MB
Poster.jpg 144.96 KB
20 plików
Brak komentarzy...