Enable / Włącz Javascript
 Widok 
 Kategorie 
 Nitro Torrent w sieci 
 Top 10 użytkowników 
 Stalingrad 3D(OU) - Сталинград 3D *2013* [1080p.Half.Over-Under.DTS 5.1.AC3.SUBBEDPL.BluRay.x264-SONDA] [AT-TEAM]

Stalingrad 3D(OU) - Сталинград 3D *2013* [1080p.Half.Over-Under.DTS 5.1.AC3.SUBBEDPL.BluRay.x264-SONDA] [AT-TEAM]
Kategoria: » » »
Dodane: 03/10/2017
Rozmiar: 8.50 GB
Uploader: sunstarnova.com❱ Wędrowiec
seed(ów): 0
leecher(ów): 0
Pobrane: 2
Komentarzy: 0
Pobierz Torrent Pobierz Torrent
Pobierz [Magnet] Pobierz [Magnet]

Obserwuj
Raportuj

Film w wersji 3D Over-Under.
Do odtworzenia filmu WYMAGANY odpowiedni sprzęt (TV 3D)
=================================================
UWAGA: Napisy 3D na stałe wtopione w film. Zapraszam Wszystkich chętnych !!!!!!!
=====================================================================

gatunek: Wojenny
produkcja: Rosja
premiera: 29 listopada 2013 (Polska) 10 października 2013 (świat)
reżyseria: Fedor Bondarchuk
scenariusz: Ilya Tilkin,Sergey Snezhkin

Obsada:
Mariya Smolnikova - Katya
Yanina Studilina - Masha
Pyotr Fyodorov - Gromov
Thomas Kretschmann - Peter Kahn

Opis:
Listopad 1942 roku, Stalingrad. Grupa rosyjskich żołnierzy zaciekle broni strategicznego budynku, stawiając opór bezwzględnej niemieckiej armii. Między nimi a mieszkającymi w zniszczonym mieście dwiema kobietami tworzą się bardzo silne więzi. Wokół toczy się najkrwawsza bitwa w historii ludzkości, która rani wszystkich. Dramat przeżywają żołnierze, cywile, ale również i niemieccy najeźdźcy.
Lecz nawet w najstraszniejszej bitwie jest miejsce na miłość i nadzieję.

[Blu-ray] http://www.blu-ray.com/movies/Stalingrad-3D-Blu-ray/91577/

[IMDb] http://www.imdb.com/title/tt1966566/?ref_=fn_al_tt_2


BluRay 3D Rip (OU) - SONDA
===========================

General
Format : Matroska
Format version : Version 2
File size : 8.50 GiB
Duration : 2h 10mn
Encoding type : 2 pass
Overall bit rate mode : Variable
Overall bit rate : 9 296 Kbps
Movie name : Сталинград_2013_3D_BLUEBIRD.Bluray3D Rip by Sonda [AT-Team]
Encoded date : UTC 2014-01-30 11:39:28
Writing application : mkvmerge v5.7.0 ('The Whirlwind') built on Jul 8 2012 20:08:51
Writing library : libebml v1.2.3 + libmatroska v1.3.0

Video
ID : 1
Format : AVC
Format/Info : Advanced Video Codec
Format profile : High@L4.1
Format settings, CABAC : Yes
Format settings, ReFrames : 2 frames
Codec ID : V_MPEG4/ISO/AVC
Duration : 2h 10mn
Bit rate mode : Variable
Bit rate : 7 142 Kbps
Maximum bit rate : 40.0 Mbps
Width : 1 920 pixels
Height : 1 080 pixels
Display aspect ratio : 16:9 (2.43:1)
Frame rate mode : Constant
Frame rate : 23.976 fps
Color space : YUV
Chroma subsampling : 4:2:0
Bit depth : 8 bits
Scan type : Progressive
Bits/(Pixel*Frame) : 0.144
Stream size : 6.36 GiB (75%)
Title : BluRay 3D Rip by Sonda subbedPL - encoding 2 pass
Writing library : x264 core 112 r1834 a51816a
Default : Yes
Forced : No

Audio #1
ID : 2
Format : AC-3
Format/Info : Audio Coding 3
Mode extension : CM (complete main)
Format settings, Endianness : Big
Codec ID : A_AC3
Duration : 2h 10mn
Bit rate mode : Constant
Bit rate : 640 Kbps
Channel(s) : 6 channels
Channel positions : Front: L C R, Side: L R, LFE
Sampling rate : 48.0 KHz
Bit depth : 16 bits
Compression mode : Lossy
Stream size : 599 MiB (7%)
Title : AC3 5.1 Orginal
Language : Russian
Default : Yes
Forced : Yes

Audio #2
ID : 3
Format : DTS
Format/Info : Digital Theater Systems
Mode : 16
Format settings, Endianness : Big
Codec ID : A_DTS
Duration : 2h 10mn
Bit rate mode : Constant
Bit rate : 1 509 Kbps
Channel(s) : 6 channels
Channel positions : Front: L C R, Side: L R, LFE
Sampling rate : 48.0 KHz
Bit depth : 24 bits
Compression mode : Lossy
Stream size : 1.38 GiB (16%)
Title : DTS 5.1 Orginal
Language : Russian
Default : No
Forced : No

Source:
A/V- Stalingrad 2013 BluRay [2D/3D] 1080p AVC DTS-HD MA 5.1 BLUEBIRD
SUBBEDPL - SONDA

Dostępne napisy
Brak napisów
Szczegóły torrenta
Tracker http://tracker.aletorrenty.pl:2710/announce
Multitracker [ Pokaż ]
Kategoria: » » » [Zgłoś błąd]
Dodane 03-10-2017
Podziękowali:
0 użytkowników 
Podziękuj!
Pokaż / Ukryj pliki:
Nazwa pliku Rozmiar
STALINGRAD_3D_subbedPL(Sonda).mkv 8.50 GB
AT-TEAM old movie.jpg 140.78 KB
Stalingrad_3D.jpg 82.05 KB
AT-TEAM.jpg 36.66 KB
Read iNFO.txt 2.07 KB
Ale Torrenty Team enjoy !.url 0.11 KB
6 plików
Brak komentarzy...